osu file format v14

[General]
AudioFilename: Jin - Shounen Brave.mp3
AudioLeadIn: 1500
PreviewTime: 79319
Countdown: 0
SampleSet: Soft
StackLeniency: 0.4
Mode: 0
LetterboxInBreaks: 1
WidescreenStoryboard: 0

[Editor]
DistanceSpacing: 0.8
BeatDivisor: 4
GridSize: 4
TimelineZoom: 1.5

[Metadata]
Title:Shounen Brave
TitleUnicode:少年ブレイヴ
Artist:JIN
ArtistUnicode:じん
Creator:buhei
Version:Bravery
Source:カゲロウプロジェクト
Tags:_lai papapa213 Kagerou Project 自然の敵P 瀬戸幸助 小桜茉莉 Seto Marry IA VOCALOID
BeatmapID:490427
BeatmapSetID:208242

[Difficulty]
HPDrainRate:6
CircleSize:4
OverallDifficulty:9
ApproachRate:9
SliderMultiplier:1.6
SliderTickRate:2

[Events]
//Background and Video events
0,0,"BG.jpg",0,0
//Break Periods
2,105860,123207
2,196884,205450
//Storyboard Layer 0 (Background)
//Storyboard Layer 1 (Fail)
//Storyboard Layer 2 (Pass)
//Storyboard Layer 3 (Foreground)
//Storyboard Sound Samples

[TimingPoints]
295,292.682926829268,4,2,0,40,1,0
7319,-100,4,2,0,60,0,0
14343,-100,4,2,0,75,0,0
33075,-100,4,2,0,60,0,0
51807,-100,4,2,0,70,0,0
78002,-166.666666666667,4,2,0,70,0,0
79904,-83.3333333333333,4,2,0,80,0,1
103318,-83.3333333333333,4,2,0,90,0,1
104343,-83.3333333333333,4,2,0,90,0,0
105221,-83.3333333333333,4,2,0,70,0,0
123807,-100,4,2,0,60,0,0
133465,-166.666666666667,4,2,0,60,0,0
133758,-100,4,2,0,60,0,0
142099,-125,4,2,0,60,0,0
143124,-100,4,2,0,70,0,0
169319,-166.666666666667,4,2,0,70,0,0
170929,292.682926829268,4,2,0,80,1,1
170929,-83.3333333333333,4,2,0,80,0,1
194343,-83.3333333333333,4,2,0,90,0,1
195368,-83.3333333333333,4,2,0,90,0,0
195953,-83.3333333333333,4,2,0,70,0,0
206050,-125,4,2,0,60,0,0
214246,-125,4,2,0,50,0,0
214831,-100,4,2,0,45,0,0
215416,-100,4,2,0,70,0,0
229611,-100,4,2,0,60,0,0
230050,-100,4,2,0,70,0,0
230636,-100,4,2,0,75,0,0
231221,-100,4,2,0,80,0,0
231807,-83.3333333333333,4,2,0,75,0,0
232246,-125,4,2,0,75,0,0
232465,-125,4,2,0,5,0,0
232538,-100,4,2,0,75,0,0
232758,-100,4,2,0,5,0,0
232831,-142.857142857143,4,2,0,75,0,0
233489,-142.857142857143,4,2,0,5,0,0
233563,-100,4,2,0,75,0,0
234148,-83.3333333333333,4,2,0,80,0,1
257563,-83.3333333333333,4,2,0,90,0,1
258587,-83.3333333333333,4,2,0,90,0,0
259904,-100,4,2,0,70,0,0

[Colours]
Combo1 : 0,128,64
Combo2 : 250,154,219
Combo3 : 39,238,17
Combo4 : 0,128,255
Combo5 : 255,128,64
Combo6 : 255,0,0
Combo7 : 128,128,128

[HitObjects]
48,64,295,86,0,L|56:144,1,80,,,0:0:0:0:
144,112,587,2,0,L|152:192,1,80,2|0,0:0|0:0,0:0:0:0:
48,64,1026,1,0,0:0:0:0:
144,112,1319,2,0,B|201:130|258:120|304:92,1,160,2|0,0:0|0:0,0:0:0:0:
392,74,1758,1,2,0:0:0:0:
441,156,1904,1,0,0:0:0:0:
379,229,2051,6,0,L|301:216,1,80,,,0:0:0:0:
332,312,2343,2,0,L|254:299,1,80,2|0,0:0|0:0,0:0:0:0:
380,228,2782,1,0,0:0:0:0:
253,298,3075,2,0,B|198:314|143:306|98:281,1,160,2|0,0:0|0:0,0:0:0:0:
44,200,3514,1,2,0:0:0:0:
84,112,3660,1,2,0:0:0:0:
108,124,3734,1,0,0:0:0:0:
132,136,3807,86,0,L|212:128,1,80,,,0:0:0:0:
296,72,4099,2,0,L|376:80,1,80,2|0,0:0|0:0,0:0:0:0:
132,136,4538,1,0,0:0:0:0:
296,72,4831,2,0,L|456:88,1,160,2|0,0:0|0:0,0:0:0:0:
396,176,5270,1,2,0:0:0:0:
368,304,5563,6,0,L|296:340,1,80,,,0:0:0:0:
180,340,5855,2,0,L|108:304,1,80,2|0,0:0|0:0,0:0:0:0:
368,304,6294,1,0,0:0:0:0:
108,304,6587,2,0,B|68:264|62:203|87:157,1,160,2|0,0:0|0:0,0:0:0:0:
124,48,7026,1,2,0:0:0:0:
208,124,7173,1,2,0:0:0:0:
236,148,7246,1,0,0:0:0:0:
264,172,7319,6,0,L|344:172,1,80,4|0,1:2|0:0,0:0:0:0:
464,128,7612,1,0,1:0:0:0:
432,276,7758,1,2,0:0:0:0:
420,276,7831,1,0,0:0:0:0:
408,276,7904,2,0,L|328:276,1,80,2|0,0:0|0:0,0:0:0:0:
188,340,8197,2,0,L|268:340,1,80,0|0,1:0|0:0,0:0:0:0:
108,304,8490,5,0,0:0:0:0:
32,208,8636,1,2,0:3:0:0:
152,188,8782,1,0,1:0:0:0:
108,304,8929,1,2,0:3:0:0:
32,208,9075,6,0,L|44:128,1,80,,,0:0:0:0:
116,36,9368,1,0,1:0:0:0:
240,96,9514,1,2,0:0:0:0:
252,96,9587,1,0,0:0:0:0:
264,96,9660,2,0,L|344:96,1,80,2|0,0:0|0:0,0:0:0:0:
400,192,9953,2,0,L|320:192,1,80,0|0,1:0|0:0,0:0:0:0:
512,168,10246,5,0,0:0:0:0:
476,264,10393,1,2,0:3:0:0:
340,344,10538,1,0,1:0:0:0:
376,248,10685,1,2,0:3:0:0:
388,220,10758,1,0,0:0:0:0:
400,192,10831,54,0,L|320:192,1,80,2|0,0:0|0:0,0:0:0:0:
116,168,11124,2,0,L|196:168,1,80,0|2,1:0|0:0,0:0:0:0:
268,124,11343,1,0,0:0:0:0:
268,124,11416,2,0,B|279:97|278:68|268:44,1,80,2|0,0:0|0:0,0:0:0:0:
40,128,11709,2,0,B|29:154|30:182|39:206,1,80,0|0,1:0|0:0,0:0:0:0:
56,328,12002,5,0,0:0:0:0:
172,288,12148,1,2,0:3:0:0:
56,328,12294,1,0,1:0:0:0:
172,288,12440,1,2,0:3:0:0:
288,248,12587,6,0,L|368:248,1,80,,,0:0:0:0:
480,336,12880,2,0,L|400:336,1,80,0|2,1:0|0:0,0:0:0:0:
368,336,13099,1,0,0:0:0:0:
368,336,13173,1,2,0:0:0:0:
204,200,13319,2,0,B|193:173|194:144|204:120,2,80,0|0|0,0:0|1:0|0:0,0:0:0:0:
232,316,13758,5,2,3:0:0:0:
124,200,13904,1,8,3:0:0:0:
292,180,14051,1,2,1:2:0:0:
292,180,14148,1,2,3:2:0:0:
292,180,14246,1,0,3:0:0:0:
292,180,14343,54,0,B|331:200|375:195|408:172,1,120,4|0,1:2|0:0,0:0:0:0:
432,136,14636,2,0,L|444:56,1,80,0|0,1:0|0:0,0:0:0:0:
212,16,14929,2,0,L|200:96,1,80,2|0,0:0|0:0,0:0:0:0:
124,200,15221,1,2,1:2:0:0:
124,200,15294,1,0,0:0:0:0:
124,200,15368,6,0,B|109:240|123:284|155:308,1,120,2|0,0:0|0:0,0:0:0:0:
191,326,15660,1,0,0:0:0:0:
381,359,15807,2,0,L|461:351,1,80,0|0,1:0|0:0,0:0:0:0:
322,236,16099,2,0,L|242:228,1,80,2|0,0:0|0:0,0:0:0:0:
319,117,16392,1,2,1:2:0:0:
319,117,16465,1,0,0:0:0:0:
319,117,16538,6,0,L|459:133,1,120,2|0,0:0|0:0,0:0:0:0:
479,133,16831,1,0,0:0:0:0:
345,36,16977,2,0,B|318:26|290:30|268:45,1,80,0|0,1:0|0:0,0:0:0:0:
242,228,17270,2,0,B|215:238|187:234|165:219,1,80,2|0,0:0|0:0,0:0:0:0:
20,128,17563,1,2,1:2:0:0:
20,128,17636,1,0,0:0:0:0:
20,128,17709,6,0,B|54:154|63:199|48:235,1,120,2|0,0:0|0:0,0:0:0:0:
24,268,18002,1,0,0:0:0:0:
177,298,18148,2,0,L|165:218,1,80,0|0,1:0|0:0,0:0:0:0:
280,384,18441,2,0,L|292:304,1,80,2|0,0:0|0:0,0:0:0:0:
384,236,18734,1,0,1:0:0:0:
495,262,18880,1,2,0:0:0:0:
384,236,19026,54,0,B|365:197|369:153|392:120,1,120,2|0,0:0|0:0,0:0:0:0:
428,96,19319,2,0,L|512:104,1,80,0|0,1:0|0:0,0:0:0:0:
320,40,19612,2,0,L|236:48,1,80,2|0,0:0|0:0,0:0:0:0:
120,104,19904,1,2,1:2:0:0:
120,104,19977,1,0,0:0:0:0:
120,104,20051,6,0,B|78:90|33:107|10:142,1,120,2|0,0:0|0:0,0:0:0:0:
2,178,20343,1,0,0:0:0:0:
175,216,20490,2,0,L|76:198,1,80,0|0,1:0|0:0,0:0:0:0:
232,300,20782,2,0,B|262:294|286:277|303:255,1,80,2|0,0:0|0:0,0:0:0:0:
384,200,21075,1,2,1:2:0:0:
384,200,21148,1,0,0:0:0:0:
384,200,21221,6,0,L|408:320,1,120,2|0,0:0|0:0,0:0:0:0:
432,350,21514,1,0,0:0:0:0:
481,191,21660,2,0,L|497:111,1,80,0|0,1:0|0:0,0:0:0:0:
344,92,21953,2,0,L|264:92,1,80,2|0,0:0|0:0,0:0:0:0:
130,41,22246,1,0,1:0:0:0:
52,160,22392,6,0,B|30:214|47:272|87:307,1,160,2|2,0:0|0:0,0:0:0:0:
108,324,22758,1,0,0:0:0:0:
132,332,22831,1,2,1:2:0:0:
259,310,22977,1,0,0:0:0:0:
192,228,23124,1,2,3:0:0:0:
192,228,23197,1,0,3:2:0:0:
192,228,23270,1,2,3:2:0:0:
192,228,23343,1,0,3:0:0:0:
192,228,23416,53,8,1:3:0:0:
224,204,23490,1,8,3:0:0:0:
264,200,23563,1,8,3:0:0:0:
304,208,23636,1,8,3:0:0:0:
336,232,23709,6,0,B|357:270|400:287|439:276,1,120,4|0,1:2|0:0,0:0:0:0:
473,250,24002,2,0,L|481:170,1,80,0|0,1:0|0:0,0:0:0:0:
384,136,24294,2,0,L|392:56,1,80,2|0,0:0|0:0,0:0:0:0:
280,3,24587,1,2,1:2:0:0:
280,3,24660,1,0,0:0:0:0:
280,3,24734,6,0,B|236:-2|198:27|188:67,1,120,2|0,0:0|0:0,0:0:0:0:
161,95,25026,1,2,0:0:0:0:
43,194,25173,2,0,B|52:153|41:113,1,80,0|0,1:0|0:0,0:0:0:0:
202,265,25465,2,0,B|161:256|121:267,1,80,2|0,0:0|0:0,0:0:0:0:
284,210,25758,1,2,1:2:0:0:
284,210,25831,1,0,0:0:0:0:
284,210,25904,6,0,B|308:247|304:293|280:325,1,120,2|0,0:0|0:0,0:0:0:0:
292,362,26197,1,0,0:0:0:0:
408,249,26343,2,0,L|494:260,1,80,0|0,1:0|0:0,0:0:0:0:
500,144,26636,2,0,B|507:116|505:88|496:63,1,80,2|0,0:0|0:0,0:0:0:0:
360,24,26929,1,2,1:2:0:0:
360,24,27002,1,0,0:0:0:0:
360,24,27075,54,0,B|315:23|277:49|260:87,1,120,2|0,0:0|0:0,0:0:0:0:
247,119,27368,1,0,0:0:0:0:
127,135,27514,2,0,L|47:121,1,80,0|0,1:0|0:0,0:0:0:0:
128,252,27807,2,0,B|133:281|127:310|112:332,1,80,2|0,0:0|0:0,0:0:0:0:
296,360,28099,1,0,1:0:0:0:
240,280,28246,1,0,0:0:0:0:
312,188,28392,6,0,B|349:214|396:214|431:192,1,120,2|0,0:0|0:0,0:0:0:0:
460,164,28685,2,0,L|440:244,1,80,0|0,1:0|0:0,0:0:0:0:
269,84,28977,2,0,L|288:6,1,80,2|0,0:0|0:0,0:0:0:0:
312,188,29270,1,0,1:0:0:0:
183,235,29416,6,0,B|144:255|99:249|68:223,1,120,2|0,0:0|0:0,0:0:0:0:
43,195,29709,1,0,0:0:0:0:
176,77,29855,2,0,L|96:73,1,80,0|0,1:0|0:0,0:0:0:0:
312,188,30148,2,0,B|319:228|311:267,1,80,2|0,0:0|0:0,0:0:0:0:
203,359,30441,1,2,1:2:0:0:
203,359,30514,1,0,0:0:0:0:
203,359,30587,6,0,B|350:354,1,120,2|0,0:0|0:0,0:0:0:0:
364,361,30880,1,0,0:0:0:0:
484,198,31026,1,0,1:0:0:0:
457,301,31173,1,2,0:0:0:0:
421,118,31319,1,2,3:0:0:0:
288,96,31465,1,2,0:0:0:0:
421,82,31612,1,2,1:3:0:0:
288,132,31758,54,0,B|260:140|232:160|232:160|200:124|144:124,1,160,2|2,0:0|0:0,0:0:0:0:
118,125,32124,1,0,0:0:0:0:
93,135,32197,1,2,1:2:0:0:
198,37,32343,1,0,0:0:0:0:
152,200,32490,5,2,3:0:0:0:
0,70,32636,1,8,3:0:0:0:
80,224,32782,1,2,0:0:0:0:
72,46,32929,1,8,1:3:0:0:
8,248,33075,54,0,L|8:332,2,80,4|0|0,1:2|0:0|1:0,0:0:0:0:
276,244,33660,1,2,0:0:0:0:
336,176,33807,2,0,L|336:92,1,80,0|0,0:0|1:0,0:0:0:0:
276,28,34099,1,2,0:0:0:0:
276,244,34392,1,2,0:0:0:0:
336,320,34538,2,0,L|416:320,1,80,0|0,1:0|0:0,0:0:0:0:
476,244,34831,2,0,L|476:164,2,80,0|0|0,0:0|0:0|1:0,0:0:0:0:
416,320,35270,1,2,0:0:0:0:
276,244,35416,6,0,L|112:244,1,160,0|0,0:0|1:0,0:0:0:0:
62,164,35855,2,0,L|62:84,1,80,2|0,0:0|0:0,0:0:0:0:
192,148,36148,2,0,L|272:148,1,80,0|0,0:0|1:0,0:0:0:0:
359,106,36441,1,2,0:0:0:0:
400,316,36734,1,2,0:0:0:0:
336,244,36880,2,0,L|256:244,1,80,0|0,1:0|0:0,0:0:0:0:
192,316,37173,37,2,0:0:0:0:
400,316,37319,1,2,1:3:0:0:
192,316,37465,1,2,0:0:0:0:
400,316,37612,1,2,1:3:0:0:
192,316,37758,38,0,L|112:316,2,80,2|0|0,0:0|0:0|1:0,0:0:0:0:
212,36,38344,1,2,0:0:0:0:
284,100,38490,2,0,L|364:100,1,80,0|0,0:0|1:0,0:0:0:0:
436,36,38783,1,2,0:0:0:0:
212,36,39075,1,2,0:0:0:0:
140,100,39221,2,0,L|140:180,1,80,0|0,1:0|0:0,0:0:0:0:
212,244,39514,2,0,L|296:244,1,80,0|2,0:0|0:0,0:0:0:0:
292,244,39734,1,0,0:0:0:0:
292,244,39807,1,2,1:0:0:0:
140,180,39953,1,2,0:0:0:0:
192,336,40099,6,0,L|352:336,1,160,0|0,0:0|1:0,1:0:0:0:
436,288,40538,2,0,L|436:208,1,80,0|2,0:0|0:0,0:0:0:0:
340,44,40831,2,0,L|340:124,1,80,0|0,0:0|1:0,0:0:0:0:
340,220,41124,1,2,0:0:0:0:
180,92,41416,53,2,0:0:0:0:
184,96,41489,1,0,0:0:0:0:
188,100,41562,1,2,1:2:0:0:
92,100,41709,1,0,0:0:0:0:
140,180,41855,53,2,0:0:0:0:
180,92,42002,1,2,1:2:0:0:
184,96,42075,1,0,0:0:0:0:
188,100,42148,1,8,0:3:0:0:
92,100,42294,1,0,1:0:0:0:
68,280,42441,70,0,L|68:360,2,80,4|0|4,1:2|0:0|1:2,0:0:0:0:
140,180,43026,1,2,0:0:0:0:
216,240,43173,2,0,L|296:240,1,80,2|0,0:0|1:0,0:0:0:0:
372,180,43465,1,2,0:0:0:0:
216,240,43758,1,2,0:0:0:0:
140,180,43904,2,0,L|140:100,1,80,0|0,1:0|0:0,0:0:0:0:
216,40,44197,2,0,L|296:40,1,80,0|2,0:0|0:0,0:0:0:0:
296,40,44416,1,0,0:0:0:0:
296,40,44490,1,2,1:2:0:0:
140,100,44636,1,2,0:0:0:0:
64,160,44782,6,0,L|64:320,1,160,0|0,0:0|1:0,0:0:0:0:
140,380,45221,2,0,L|220:380,1,80,0|2,0:0|0:0,0:0:0:0:
436,324,45514,2,0,L|356:324,1,80,0|0,0:0|1:0,0:0:0:0:
284,260,45807,1,2,0:0:0:0:
284,68,46099,1,2,0:0:0:0:
188,68,46246,2,0,L|108:68,1,80,0|2,1:0|0:0,0:0:0:0:
108,68,46465,1,0,0:0:0:0:
108,68,46538,37,2,0:0:0:0:
196,220,46685,1,2,1:3:0:0:
284,68,46831,1,2,0:0:0:0:
108,68,46977,1,2,1:3:0:0:
196,220,47124,38,0,L|196:304,1,80,2|0,0:0|0:0,0:0:0:0:
284,357,47416,1,0,1:0:0:0:
284,68,47709,1,2,0:0:0:0:
356,132,47855,2,0,L|436:132,1,80,2|0,0:0|1:0,0:0:0:0:
508,68,48148,1,2,0:0:0:0:
356,132,48441,1,2,0:0:0:0:
288,200,48587,2,0,L|288:284,1,80,0|0,1:0|0:0,0:0:0:0:
356,348,48880,2,0,L|436:348,1,80,2|0,0:0|0:0,0:0:0:0:
416,252,49173,1,0,1:0:0:0:
288,280,49319,1,0,0:0:0:0:
160,308,49465,6,0,L|-4:308,1,160,0|0,0:0|1:0,0:0:0:0:
28,216,49904,1,0,0:0:0:0:
120,174,50051,2,0,L|204:174,1,80,,,0:0:0:0:
204,80,50343,1,0,1:0:0:0:
108,80,50490,2,0,L|28:80,1,80,2|0,0:0|0:0,0:0:0:0:
300,80,50782,53,2,0:0:0:0:
300,80,50855,1,0,0:0:0:0:
300,80,50929,1,2,1:2:0:0:
300,176,51075,1,0,0:0:0:0:
300,80,51221,53,2,3:0:0:0:
300,272,51368,1,8,3:0:0:0:
300,272,51441,1,8,3:0:0:0:
300,272,51514,1,8,1:3:0:0:
300,176,51660,1,2,0:0:0:0:
300,368,51807,6,0,B|270:372|242:360|224:340,1,80,4|2,1:2|0:0,0:0:0:0:
164,292,52026,1,0,0:0:0:0:
148,304,52099,2,0,B|120:302|93:310|71:324,1,80,2|0,1:2|0:0,0:0:0:0:
20,144,52392,2,0,B|44:160|71:166|97:164,1,80,2|0,0:0|0:0,0:0:0:0:
200,128,52685,1,0,1:0:0:0:
300,80,52831,6,0,B|326:66|355:64|380:72,1,80,2|0,0:0|0:0,0:0:0:0:
480,84,53124,1,2,0:0:0:0:
460,184,53270,2,0,L|376:196,1,80,0|0,1:0|0:0,0:0:0:0:
320,332,53563,2,0,L|399:320,1,80,0|2,0:0|0:0,0:0:0:0:
399,319,53782,1,0,0:0:0:0:
399,319,53855,1,2,1:2:0:0:
212,276,54002,1,2,0:0:0:0:
96,296,54148,6,0,B|68:284|49:260|44:232,1,80,0|2,0:0|0:0,0:0:0:0:
32,196,54368,1,0,0:0:0:0:
32,196,54441,1,2,1:2:0:0:
148,36,54587,2,0,L|224:8,2,80,0|2|0,0:0|0:0|0:0,0:0:0:0:
32,48,55026,1,0,1:0:0:0:
148,152,55173,2,0,B|176:159|204:157|229:148,1,80,2|0,0:0|0:0,0:0:0:0:
316,92,55465,54,0,L|356:96,1,40,2|0,0:0|0:0,0:0:0:0:
424,144,55612,1,0,1:0:0:0:
316,92,55758,1,2,0:0:0:0:
408,216,55904,1,0,0:0:0:0:
316,92,56051,1,2,1:3:0:0:
392,288,56197,1,8,1:3:0:0:
316,92,56343,1,0,1:0:0:0:
184,228,56490,6,0,B|156:235|128:233|103:224,1,80,0|2,1:0|0:0,0:0:0:0:
32,188,56709,1,0,0:0:0:0:
20,208,56782,2,0,L|16:288,1,80,2|0,1:2|0:0,0:0:0:0:
136,352,57075,1,0,0:0:0:0:
244,296,57221,1,2,0:0:0:0:
244,296,57294,1,0,0:0:0:0:
244,296,57368,1,0,1:0:0:0:
252,176,57514,6,0,L|248:96,1,80,2|0,0:0|0:0,0:0:0:0:
336,28,57807,1,2,0:0:0:0:
416,104,57953,2,0,B|426:131|422:159|409:181,1,80,0|0,1:0|0:0,0:0:0:0:
422,369,58246,2,0,B|407:344|406:316|416:292,1,80,0|2,0:0|0:0,0:0:0:0:
440,260,58465,1,0,0:0:0:0:
440,260,58538,1,2,1:2:0:0:
324,324,58685,1,0,0:0:0:0:
176,320,58831,6,0,L|96:316,1,80,0|2,0:0|0:0,0:0:0:0:
36,256,59051,1,0,0:0:0:0:
24,236,59124,2,0,L|104:240,1,80,0|0,1:0|0:0,0:0:0:0:
196,184,59416,1,2,0:0:0:0:
240,92,59562,1,0,0:0:0:0:
196,184,59709,1,0,1:0:0:0:
72,40,59855,2,0,L|152:40,1,80,2|0,0:0|0:0,0:0:0:0:
368,24,60148,53,2,0:0:0:0:
368,24,60221,2,0,L|364:72,1,40,2|2,0:0|1:2,0:0:0:0:
448,156,60441,1,2,0:0:0:0:
360,112,60587,1,0,1:0:0:0:
456,240,60734,1,0,1:0:0:0:
352,196,60880,2,0,L|344:280,1,80,8|2,1:3|0:0,0:0:0:0:
268,368,61173,6,0,B|240:375|212:373|187:364,1,80,4|2,1:2|0:0,0:0:0:0:
124,300,61392,1,0,0:0:0:0:
100,312,61465,2,0,B|72:304|72:304|48:308|20:300,1,80,2|0,1:2|0:0,0:0:0:0:
20,168,61758,2,0,B|46:160|70:164|70:164|98:156,1,80,,,0:0:0:0:
208,112,62051,1,0,1:0:0:0:
312,56,62197,6,0,L|392:64,1,80,0|2,0:0|0:0,0:0:0:0:
480,160,62490,1,0,0:0:0:0:
424,244,62636,1,0,1:0:0:0:
324,232,62782,2,0,L|244:240,2,80,0|0|2,0:0|0:0|0:0,0:0:0:0:
352,200,63148,1,0,0:0:0:0:
352,200,63221,1,2,1:2:0:0:
272,328,63368,6,0,B|244:336|215:333|192:320,1,80,2|0,0:0|0:0,0:0:0:0:
108,244,63660,1,2,0:0:0:0:
108,244,63734,1,0,0:0:0:0:
108,244,63807,1,2,1:2:0:0:
112,128,63953,2,0,L|32:116,1,80,0|2,0:0|0:0,1:0:0:0:
216,80,64246,1,0,0:0:0:0:
316,48,64392,1,0,1:0:0:0:
412,92,64538,54,0,L|436:212,1,120,2|0,0:0|0:0,0:0:0:0:
444,256,64831,2,0,L|432:296,1,40,2|0,0:0|0:0,0:0:0:0:
376,352,64977,1,2,1:2:0:0:
192,308,65124,1,0,1:0:0:0:
336,224,65270,2,0,B|307:220|279:225|255:236,1,80,8|2,3:0|0:2,0:0:0:0:
257,235,65490,1,0,0:0:0:0:
257,235,65563,1,8,1:3:0:0:
376,352,65709,1,8,3:0:0:0:
176,192,65855,6,0,B|150:206|121:208|96:200,1,80,0|2,1:0|0:0,0:0:0:0:
56,184,66075,1,0,0:0:0:0:
56,184,66148,1,2,1:2:0:0:
100,56,66294,2,0,L|184:64,1,80,0|2,0:0|0:0,0:0:0:0:
296,108,66587,2,0,L|380:100,1,80,0|0,0:0|1:0,0:0:0:0:
440,36,66880,6,0,B|405:81|409:142|443:183,1,160,2|0,0:0|0:0,0:0:0:0:
416,344,67319,1,0,1:0:0:0:
336,284,67465,2,0,B|343:256|341:228|332:203,1,80,2|0,0:0|0:0,0:0:0:0:
188,264,67758,1,2,0:0:0:0:
192,288,67831,1,0,0:0:0:0:
196,316,67904,1,2,1:2:0:0:
64,232,68051,2,0,L|72:152,1,80,,,0:0:0:0:
60,48,68343,5,2,0:0:0:0:
60,48,68416,1,0,0:0:0:0:
60,48,68490,1,0,1:0:0:0:
168,104,68636,1,0,0:0:0:0:
288,80,68782,2,0,B|317:75|346:81|368:96,2,80,2|2|2,3:0|0:0|1:3,0:0:0:0:
312,208,69221,54,0,B|363:237|426:221|459:177,1,160,4|2,0:0|0:0,0:0:0:0:
476,148,69587,2,0,L|464:108,1,40,0|2,0:0|1:2,0:0:0:0:
332,56,69807,1,2,3:2:0:0:
332,56,69880,1,0,3:0:0:0:
288,80,69953,5,2,3:0:0:0:
256,76,70026,1,0,3:0:0:0:
224,72,70099,1,2,3:2:0:0:
192,68,70173,1,0,3:0:0:0:
160,64,70246,6,0,L|120:72,1,40,8|0,1:3|3:0,0:0:0:0:
56,112,70392,2,0,L|33:145,1,40,8|0,3:0|3:0,0:0:0:0:
32,228,70538,6,0,L|52:316,1,80,4|0,1:2|0:0,0:0:0:0:
360,364,70977,1,4,1:2:0:0:
448,272,71124,2,0,L|468:184,1,80,,,0:0:0:0:
408,104,71416,1,4,1:2:0:0:
320,164,71563,54,0,B|265:182|208:159|181:113,1,160,0|2,0:0|0:0,0:0:0:0:
160,8,72002,1,0,1:0:0:0:
80,80,72148,1,2,0:0:0:0:
80,80,72221,1,0,0:0:0:0:
80,80,72294,2,0,B|72:108|75:137|88:160,1,80,2|0,0:0|0:0,0:0:0:0:
120,312,72587,2,0,B|132:286|133:258|126:234,1,80,0|0,1:0|0:0,0:0:0:0:
252,304,72880,6,0,L|248:388,1,80,2|0,0:0|0:0,0:0:0:0:
472,100,73319,1,2,0:0:0:0:
368,136,73465,2,0,B|357:109|358:80|368:56,2,80,2|0|0,0:0|0:0|1:0,0:0:0:0:
420,228,73904,6,0,L|260:212,1,160,2|2,0:0|0:0,0:0:0:0:
220,208,74270,1,0,0:0:0:0:
220,208,74343,1,2,1:2:0:0:
148,128,74490,1,0,0:0:0:0:
48,164,74636,2,0,L|32:244,1,80,0|8,1:0|3:0,0:0:0:0:
132,364,74929,2,0,L|147:285,1,80,0|0,1:0|0:0,0:0:0:0:
220,208,75221,6,0,B|248:201|276:203|301:212,1,80,2|0,0:0|0:0,0:0:0:0:
298,211,75660,1,0,0:0:0:0:
420,292,75807,2,0,L|504:280,1,80,2|0,0:0|0:0,0:0:0:0:
328,304,76099,1,0,1:0:0:0:
298,211,76246,54,0,L|312:92,1,120,2|0,0:0|0:0,0:0:0:0:
288,56,76538,2,0,B|316:67|346:66|372:56,1,80,2|0,0:0|1:0,0:0:0:0:
200,28,76831,1,0,0:0:0:0:
152,136,76977,1,2,3:0:0:0:
32,124,77124,1,8,3:0:0:0:
20,244,77270,1,8,1:3:0:0:
140,256,77416,1,8,3:0:0:0:
316,352,77563,5,8,1:3:0:0:
215,210,77709,1,8,3:0:0:0:
215,210,77782,1,8,3:0:0:0:
215,210,77855,1,8,1:3:0:0:
437,162,78002,54,0,B|468:160|485:122|460:92|429:92|413:109,1,119.999996337891,2|0,3:0|0:0,0:0:0:0:
437,162,78441,53,8,1:3:0:0:
242,232,78588,1,8,3:0:0:0:
242,232,78661,1,8,3:0:0:0:
242,232,78735,1,8,1:3:0:0:
80,52,78881,1,2,3:2:0:0:
80,52,79465,37,2,0:0:0:0:
160,100,79612,2,0,L|164:148,1,47.9999985351563,2|0,0:0|0:0,0:0:0:0:
96,212,79904,70,0,B|127:255|113:314|68:340,1,143.999995605469,4|0,1:2|0:0,0:0:0:0:
40,361,80197,2,0,B|73:348|107:351|136:365,1,95.9999970703126,0|0,1:0|0:0,0:0:0:0:
304,304,80490,2,0,B|354:323|408:307|439:269,1,143.999995605469,2|0,0:0|0:0,0:0:0:0:
456,240,80782,1,0,1:0:0:0:
242,257,80929,54,0,B|221:285|221:322|239:349,1,95.9999970703126,2|0,0:0|0:0,0:0:0:0:
307,194,81221,1,2,0:0:0:0:
198,171,81368,1,0,1:0:0:0:
322,174,81514,1,2,0:0:0:0:
154,236,81660,1,0,0:0:0:0:
239,105,81807,1,2,0:0:0:0:
324,287,81953,1,0,1:0:0:0:
178,226,82099,1,0,1:0:0:0:
378,227,82246,6,0,B|405:252|411:291|396:321,1,95.9999970703126,0|2,1:0|0:0,0:0:0:0:
379,347,82465,1,0,0:0:0:0:
379,347,82538,2,0,B|307:365|305:327|233:345,1,143.999995605469,2|0,1:2|0:0,0:0:0:0:
200,356,82831,2,0,B|162:374|117:359|97:320|103:284,1,143.999995605469,,,0:0:0:0:
103,250,83124,1,0,1:0:0:0:
308,161,83270,6,0,L|210:136,1,95.9999970703126,2|0,0:0|0:0,0:0:0:0:
78,134,83563,1,2,0:0:0:0:
180,37,83709,1,0,1:0:0:0:
308,161,83855,2,0,B|340:176|377:163|394:135,1,95.9999970703126,2|0,0:0|0:0,0:0:0:0:
429,45,84148,1,2,0:0:0:0:
214,137,84294,1,0,1:0:0:0:
392,136,84441,6,0,B|426:179|426:179|403:321,1,191.999994140625,4|0,0:0|0:0,0:0:0:0:
337,368,84880,1,0,1:0:0:0:
490,298,85026,1,2,0:0:0:0:
270,240,85173,1,0,1:0:0:0:
383,289,85319,1,0,1:0:0:0:
383,289,85392,1,0,3:0:0:0:
383,289,85465,1,0,1:0:0:0:
166,324,85612,54,0,B|108:320|65:276|65:276|53:319|73:353,1,191.999994140625,4|0,0:0|0:0,0:0:0:0:
270,240,86051,1,0,1:0:0:0:
176,178,86197,1,2,0:0:0:0:
253,326,86343,1,0,1:0:0:0:
382,263,86490,2,0,L|477:254,1,95.9999970703126,2|0,0:0|1:0,0:0:0:0:
325,84,86782,5,4,0:0:0:0:
85,336,87075,1,2,0:0:0:0:
151,216,87221,1,0,1:0:0:0:
294,298,87368,2,0,B|263:323|219:320|193:294,1,95.9999970703126,2|0,0:0|0:0,0:0:0:0:
109,142,87660,2,0,B|138:124|174:127|198:147,1,95.9999970703126,2|0,0:0|1:0,0:0:0:0:
367,347,87953,6,0,B|401:300|386:233|332:201|281:210,1,191.999994140625,2|0,0:0|0:0,0:0:0:0:
204,302,88392,1,0,1:0:0:0:
401,228,88538,1,2,0:0:0:0:
241,84,88685,5,8,1:3:0:0:
241,84,88758,1,0,3:0:0:0:
241,84,88831,1,0,3:0:0:0:
290,345,88977,1,8,1:3:0:0:
363,139,89124,1,0,1:0:0:0:
363,139,89197,1,0,3:0:0:0:
363,139,89270,53,4,1:2:0:0:
87,270,89563,1,0,1:0:0:0:
441,341,89855,1,2,0:0:0:0:
209,210,90148,1,0,1:0:0:0:
155,309,90294,6,0,B|137:339|104:353|73:348,1,95.9999970703126,2|0,0:0|0:0,0:0:0:0:
209,210,90587,2,0,B|243:205|274:222|290:248,1,95.9999970703126,2|0,0:0|1:0,0:0:0:0:
121,226,90880,1,2,0:0:0:0:
276,131,91026,1,0,0:0:0:0:
170,68,91173,1,2,0:0:0:0:
303,152,91319,1,0,1:0:0:0:
213,304,91465,1,0,1:0:0:0:
276,131,91612,6,0,B|319:164|378:158|414:122,1,143.999995605469,0|0,1:0|0:0,0:0:0:0:
434,98,91904,2,0,B|429:142|429:142|455:187|439:239,1,143.999995605469,0|0,1:0|0:0,0:0:0:0:
447,276,92197,2,0,B|374:270|374:270|337:267|304:282,1,143.999995605469,2|0,0:0|0:0,0:0:0:0:
273,303,92490,1,0,1:0:0:0:
434,355,92636,6,0,B|488:365|539:324|541:263|509:226,1,191.999994140625,2|0,0:0|0:0,0:0:0:0:
329,142,93075,1,0,1:0:0:0:
227,236,93221,2,0,B|179:271|111:258|76:206|80:153,1,191.999994140625,2|0,0:0|0:0,0:0:0:0:
329,142,93660,1,0,1:0:0:0:
236,345,93807,53,4,0:0:0:0:
236,345,94099,1,2,0:0:0:0:
382,299,94246,1,0,1:0:0:0:
305,220,94392,1,2,0:0:0:0:
337,376,94538,1,0,1:0:0:0:
153,285,94685,1,0,1:0:0:0:
153,285,94758,1,0,3:0:0:0:
153,285,94831,1,0,1:0:0:0:
408,220,94977,5,4,0:0:0:0:
408,220,95270,1,2,0:0:0:0:
426,131,95416,1,0,1:0:0:0:
256,64,95563,1,2,0:0:0:0:
274,153,95709,1,0,1:0:0:0:
360,42,95855,1,2,0:0:0:0:
152,42,96002,1,0,1:0:0:0:
360,42,96148,6,0,B|395:78|395:78|408:222,1,191.999994140625,4|0,0:0|0:0,0:0:0:0:
256,140,96587,1,0,1:0:0:0:
104,219,96734,2,0,B|117:78|117:78|152:42,1,191.999994140625,4|0,0:0|0:0,0:0:0:0:
256,140,97173,1,0,1:0:0:0:
256,332,97319,6,0,L|256:140,1,191.999994140625,4|0,0:0|0:0,0:0:0:0:
345,259,97758,1,0,1:0:0:0:
140,365,97904,1,8,3:0:0:0:
140,365,97977,1,0,3:0:0:0:
140,365,98051,1,8,1:3:0:0:
372,365,98197,1,2,0:0:0:0:
167,259,98343,1,8,1:3:0:0:
256,332,98490,1,2,1:2:0:0:
256,140,98636,53,4,1:2:0:0:
448,144,98929,1,0,1:0:0:0:
448,144,99075,2,0,B|376:152|376:152|348:132|348:88,1,143.999995605469,2|0,0:0|0:0,0:0:0:0:
349,51,99368,1,2,0:0:0:0:
476,140,99514,1,0,1:0:0:0:
355,258,99660,1,2,0:0:0:0:
446,332,99953,5,2,0:0:0:0:
446,332,100099,1,0,1:0:0:0:
256,364,100246,2,0,L|256:316,2,47.9999985351563,2|0|2,0:0|0:0|0:0,0:0:0:0:
66,332,100538,1,2,0:0:0:0:
162,350,100685,1,0,1:0:0:0:
256,364,100831,1,2,0:0:0:0:
256,184,100977,5,0,1:0:0:0:
64,144,101270,1,0,1:0:0:0:
64,144,101416,2,0,B|136:152|136:152|164:132|164:88,1,143.999995605469,2|0,0:0|0:0,0:0:0:0:
163,51,101709,1,2,0:0:0:0:
36,140,101855,1,0,1:0:0:0:
157,258,102001,1,2,0:0:0:0:
157,258,102294,5,0,1:0:0:0:
313,342,102441,1,2,1:3:0:0:
310,318,102514,1,0,3:0:0:0:
306,294,102587,1,2,3:2:0:0:
302,270,102660,1,0,3:0:0:0:
298,246,102734,53,2,1:3:0:0:
294,222,102806,1,0,3:0:0:0:
290,198,102879,1,2,1:2:0:0:
286,174,102952,1,0,3:0:0:0:
282,150,103026,2,0,L|378:174,1,95.9999970703126,8|0,1:3|0:0,0:0:0:0:
196,354,103319,5,0,1:0:0:0:
409,183,103465,1,8,3:0:0:0:
409,183,103538,1,0,3:0:0:0:
409,183,103612,1,2,3:2:0:0:
141,242,103758,5,0,1:0:0:0:
306,294,103904,1,8,3:0:0:0:
306,294,103977,1,0,3:0:0:0:
306,294,104051,1,2,3:2:0:0:
307,34,104197,21,8,1:3:0:0:
196,354,104343,1,4,1:2:0:0:
389,303,105221,5,2,0:0:0:0:
240,212,105368,2,0,B|201:203|172:208|172:208|148:212|124:223|104:182|128:142|167:160,1,191.999994140625,2|4,0:0|1:2,0:0:0:0:
292,52,123807,69,2,3:2:0:0:
408,168,123953,1,2,1:3:0:0:
400,164,124026,1,0,3:0:0:0:
400,156,124099,1,8,1:3:0:0:
406,152,124173,1,0,3:0:0:0:
413,155,124246,1,2,1:3:0:0:
414,163,124319,1,0,3:0:0:0:
407,160,124392,38,0,L|488:160,2,80,4|0|0,1:2|0:0|1:0,0:0:0:0:
176,236,124977,1,2,0:0:0:0:
248,300,125124,2,0,L|332:300,1,80,2|0,0:0|1:0,0:0:0:0:
176,236,125416,2,0,L|44:236,1,120,2|0,0:0|0:0,0:0:0:0:
16,236,125709,1,2,0:0:0:0:
120,140,125855,2,0,L|120:60,1,80,0|0,1:0|0:0,0:0:0:0:
216,104,126148,2,0,L|216:24,1,80,0|2,0:0|0:0,0:0:0:0:
216,0,126368,1,0,0:0:0:0:
216,0,126441,1,2,1:2:0:0:
312,140,126587,86,0,L|476:140,1,160,2|0,0:0|0:0,0:0:0:0:
432,336,127026,1,0,1:0:0:0:
348,288,127173,2,0,L|188:288,1,160,2|0,0:0|0:0,0:0:0:0:
104,336,127612,1,0,1:0:0:0:
152,200,127758,2,0,L|152:36,1,160,2|0,0:0|0:0,0:0:0:0:
248,156,128197,1,0,1:0:0:0:
152,200,128343,1,0,0:0:0:0:
56,156,128490,21,2,0:0:0:0:
248,156,128636,1,2,1:3:0:0:
152,320,128782,1,2,0:0:0:0:
56,156,128929,1,2,1:3:0:0:
248,156,129075,85,2,0:0:0:0:
216,248,129221,1,2,0:0:0:0:
216,248,129294,1,0,0:0:0:0:
216,248,129368,2,0,L|300:248,1,80,2|0,1:2|0:0,0:0:0:0:
468,108,129660,1,2,0:0:0:0:
496,200,129807,2,0,L|496:280,1,80,2|0,0:0|1:0,0:0:0:0:
412,360,130099,2,0,L|412:200,1,160,2|0,0:0|0:0,0:0:0:0:
368,68,130538,1,0,1:0:0:0:
296,156,130685,1,2,0:0:0:0:
216,104,130831,2,0,L|136:104,1,80,0|2,0:0|0:0,0:0:0:0:
112,104,131051,1,0,0:0:0:0:
112,104,131124,1,2,1:2:0:0:
36,200,131270,86,0,L|200:200,1,160,2|2,0:0|0:0,0:0:0:0:
220,200,131636,1,0,0:0:0:0:
220,200,131709,1,2,1:2:0:0:
292,288,131855,2,0,L|292:368,2,80,0|2|0,0:0|0:0|0:0,0:0:0:0:
428,232,132294,1,0,1:0:0:0:
352,172,132441,2,0,L|352:4,1,160,2|0,0:0|0:0,0:0:0:0:
436,44,132880,1,0,1:0:0:0:
352,88,133026,1,2,0:0:0:0:
268,132,133173,53,8,3:0:0:0:
256,132,133246,1,8,3:0:0:0:
244,132,133319,1,8,3:0:0:0:
232,132,133392,1,8,3:0:0:0:
220,132,133465,38,0,L|144:132,1,71.9999978027344,8|0,1:3|0:0,0:0:0:0:
72,116,133758,6,0,L|72:204,1,80,4|0,1:2|0:0,0:0:0:0:
72,328,134051,1,0,1:0:0:0:
256,216,134343,1,2,0:0:0:0:
344,260,134490,2,0,L|424:260,1,80,2|0,0:0|1:0,0:0:0:0:
256,216,134782,2,0,L|256:380,1,160,2|0,0:0|0:0,0:0:0:0:
336,160,135221,1,0,1:0:0:0:
256,216,135368,2,0,L|172:216,1,80,2|0,0:0|0:0,0:0:0:0:
96,160,135660,1,2,0:0:0:0:
96,160,135734,1,0,0:0:0:0:
96,160,135807,1,2,1:2:0:0:
132,300,135953,86,0,L|296:300,1,160,2|2,0:0|0:0,0:0:0:0:
316,300,136319,1,0,0:0:0:0:
316,300,136392,1,2,1:2:0:0:
440,240,136538,2,0,L|440:160,1,80,0|2,0:0|0:0,0:0:0:0:
428,352,136831,1,0,0:0:0:0:
352,216,136977,1,0,1:0:0:0:
428,80,137124,2,0,L|268:80,1,160,2|0,0:0|0:0,0:0:0:0:
176,216,137563,1,0,1:0:0:0:
176,124,137709,1,2,0:0:0:0:
176,124,137782,1,0,0:0:0:0:
176,124,137855,69,2,0:0:0:0:
176,308,138002,1,2,1:3:0:0:
176,124,138148,1,2,0:0:0:0:
176,308,138294,1,2,1:3:0:0:
244,216,138441,38,0,L|80:216,1,160,2|0,0:0|1:0,0:0:0:0:
412,336,139026,2,0,L|412:256,1,80,2|0,0:0|0:0,0:0:0:0:
500,152,139319,1,0,1:0:0:0:
408,116,139465,2,0,L|248:116,1,160,2|0,0:0|0:0,0:0:0:0:
176,48,139904,1,0,1:0:0:0:
100,232,140051,1,8,3:0:0:0:
100,232,140124,1,8,3:0:0:0:
100,232,140197,85,8,3:0:0:0:
292,360,140343,1,8,3:0:0:0:
98,360,140490,1,8,3:0:0:0:
195,187,140636,1,8,3:0:0:0:
195,284,140782,5,8,3:0:0:0:
440,192,142099,6,0,B|454:172|459:149|456:128,1,64,2|0,0:0|0:0,0:0:0:0:
343,36,142392,2,0,B|357:56|362:79|359:100,1,64,2|0,0:0|0:0,0:0:0:0:
347,188,142685,1,2,0:0:0:0:
347,188,142758,1,0,0:0:0:0:
347,188,142831,1,2,0:0:0:0:
262,153,142977,1,2,0:0:0:0:
298,296,143124,6,0,L|434:280,1,120,4|0,1:2|0:0,0:0:0:0:
444,273,143416,2,0,B|466:251|475:222|473:194,1,80,0|0,1:0|0:0,0:0:0:0:
225,268,143709,2,0,B|216:297|223:327|239:350,1,80,2|0,0:0|0:0,0:0:0:0:
250,187,144002,1,0,1:0:0:0:
140,277,144148,6,0,B|98:293|52:279|25:244|19:206,1,160,2|0,0:0|0:0,0:0:0:0:
109,110,144587,2,0,B|117:151|110:191,1,80,0|0,1:0|0:0,0:0:0:0:
68,35,144880,2,0,B|108:28|147:33,1,80,2|0,0:0|0:0,0:0:0:0:
255,104,145173,1,0,1:0:0:0:
347,138,145319,6,0,L|432:117,1,80,2|0,0:0|0:0,0:0:0:0:
496,217,145612,1,2,0:0:0:0:
326,44,145758,1,0,1:0:0:0:
347,138,145904,2,0,L|407:201,1,80,,,0:0:0:0:
496,217,146197,1,2,0:0:0:0:
326,44,146343,1,0,1:0:0:0:
347,138,146490,54,0,L|299:305,1,160,2|2,0:0|0:0,0:0:0:0:
302,291,146855,1,0,0:0:0:0:
302,291,146929,1,2,1:2:0:0:
200,236,147075,1,2,0:0:0:0:
302,291,147221,1,0,0:0:0:0:
178,308,147368,1,2,1:3:0:0:
302,291,147514,1,8,1:3:0:0:
156,380,147660,1,0,1:0:0:0:
91,256,147807,6,0,L|5:268,1,80,0|0,1:0|0:0,0:0:0:0:
153,126,148099,2,0,L|232:137,1,80,0|0,1:0|0:0,0:0:0:0:
115,253,148391,1,2,0:0:0:0:
129,123,148538,1,0,0:0:0:0:
224,33,148685,1,0,1:0:0:0:
354,30,148831,6,0,B|400:21|446:44|468:85|466:126,1,160,2|0,0:0|0:0,0:0:0:0:
356,239,149270,1,0,1:0:0:0:
378,113,149416,1,2,0:0:0:0:
430,269,149563,1,0,0:0:0:0:
307,306,149709,1,2,0:0:0:0:
307,306,149782,1,0,0:0:0:0:
307,306,149855,1,2,1:2:0:0:
250,173,150002,1,0,0:0:0:0:
247,367,150148,6,0,B|281:396|329:397|367:374|385:340,1,160,2|0,0:0|1:0,0:0:0:0:
250,173,150587,1,0,0:0:0:0:
76,309,150734,1,2,0:0:0:0:
156,243,150880,1,0,0:0:0:0:
177,141,151026,1,0,1:0:0:0:
76,23,151173,2,0,L|155:38,1,80,2|0,0:0|0:0,0:0:0:0:
336,73,151465,54,0,L|379:65,2,40,2|0|2,0:0|0:0|1:2,0:0:0:0:
284,167,151758,1,2,0:0:0:0:
336,73,151904,1,0,1:0:0:0:
348,211,152051,1,0,1:0:0:0:
336,73,152197,1,8,1:3:0:0:
413,255,152343,1,2,0:0:0:0:
336,73,152490,6,0,B|452:51|452:51|446:92,1,160,4|0,1:2|1:0,0:0:0:0:
150,235,153075,1,2,0:0:0:0:
170,141,153221,1,0,0:0:0:0:
241,206,153368,1,0,1:0:0:0:
140,344,153514,6,0,B|92:348|49:317|35:270|48:229,1,160,2|0,0:0|0:0,0:0:0:0:
241,206,153953,1,0,1:0:0:0:
257,327,154099,2,0,B|338:302|336:352|416:328,1,160,2|0,0:0|0:0,0:0:0:0:
241,206,154538,1,0,1:0:0:0:
322,150,154685,6,0,L|402:138,1,80,2|0,0:0|0:0,0:0:0:0:
495,167,154977,1,0,0:0:0:0:
436,44,155124,1,0,1:0:0:0:
340,22,155270,2,0,B|311:18|283:23|259:34,1,80,0|2,0:0|0:0,0:0:0:0:
166,165,155563,1,0,0:0:0:0:
75,131,155709,1,0,1:0:0:0:
99,268,155855,54,0,L|259:251,1,160,2|2,0:0|0:0,0:0:0:0:
291,259,156221,1,0,0:0:0:0:
291,259,156294,1,2,1:2:0:0:
222,357,156441,1,0,1:0:0:0:
379,308,156587,1,8,3:0:0:0:
389,280,156660,1,0,3:0:0:0:
392,250,156733,1,2,3:2:0:0:
385,221,156806,1,0,3:0:0:0:
371,194,156879,1,8,1:3:0:0:
291,259,157026,1,8,3:0:0:0:
154,211,157173,6,0,L|164:86,1,120,0|0,1:0|0:0,0:0:0:0:
167,59,157465,1,0,1:0:0:0:
48,51,157612,2,0,L|57:130,1,80,0|2,0:0|0:0,0:0:0:0:
66,259,157904,1,0,0:0:0:0:
132,339,158051,1,0,1:0:0:0:
230,371,158197,6,0,B|285:388|341:373|379:338,1,160,2|0,0:0|0:0,0:0:0:0:
448,130,158636,1,0,1:0:0:0:
347,209,158782,2,0,B|292:192|236:207|198:242,1,160,2|0,0:0|0:0,0:0:0:0:
9,206,159221,1,0,1:0:0:0:
16,73,159368,6,0,L|180:107,1,160,2|2,0:0|0:0,0:0:0:0:
342,17,159807,1,0,1:0:0:0:
342,17,159953,1,2,0:0:0:0:
238,36,160099,1,2,0:0:0:0:
280,215,160246,1,0,0:0:0:0:
402,96,160392,1,0,1:0:0:0:
512,201,160538,54,0,L|337:182,1,160,2|0,0:0|0:0,0:0:0:0:
325,184,160905,1,0,0:0:0:0:
299,195,160978,1,2,1:2:0:0:
280,215,161051,1,0,3:0:0:0:
271,242,161124,1,2,3:2:0:0:
272,269,161197,1,0,3:0:0:0:
284,294,161271,5,2,3:0:0:0:
305,312,161344,1,0,3:0:0:0:
332,321,161417,1,0,3:2:0:0:
360,319,161490,1,0,3:0:0:0:
384,306,161563,6,0,L|425:311,1,40,8|0,1:3|3:0,0:0:0:0:
474,247,161709,2,0,L|462:207,1,40,8|0,3:0|3:0,0:0:0:0:
404,145,161855,6,0,L|418:61,1,80,4|0,1:2|0:0,0:0:0:0:
90,109,162295,1,4,1:2:0:0:
168,186,162441,2,0,L|247:179,1,80,,,0:0:0:0:
75,95,162734,1,4,1:2:0:0:
37,223,162880,54,0,B|25:282|55:338|104:364,1,160,0|2,0:0|0:0,0:0:0:0:
268,287,163319,1,2,1:2:0:0:
294,279,163392,1,0,0:0:0:0:
321,284,163465,1,2,0:0:0:0:
344,299,163538,1,0,0:0:0:0:
358,323,163612,2,0,B|386:327|413:316|430:295,1,80,2|0,0:0|0:0,0:0:0:0:
478,189,163904,1,0,1:0:0:0:
438,78,164051,1,0,0:0:0:0:
324,50,164197,6,0,L|240:45,1,80,2|0,0:0|0:0,0:0:0:0:
54,273,164636,1,2,0:0:0:0:
153,207,164782,2,0,L|232:202,1,80,2|0,0:0|0:0,0:0:0:0:
39,290,165075,1,0,1:0:0:0:
108,138,165221,6,0,L|275:127,1,160,2|0,0:0|0:0,0:0:0:0:
399,44,165660,1,0,1:0:0:0:
348,177,165807,1,2,3:2:0:0:
345,203,165880,1,0,3:0:0:0:
350,229,165953,1,2,1:2:0:0:
360,254,166026,1,0,3:0:0:0:
376,275,166099,1,8,3:0:0:0:
396,292,166172,1,0,3:0:0:0:
420,304,166246,2,0,L|508:286,1,80,2|0,1:2|0:0,0:0:0:0:
300,359,166538,6,0,L|212:341,1,80,2|0,0:0|0:0,0:0:0:0:
28,206,166977,1,0,0:0:0:0:
33,110,167124,2,0,B|62:111|86:125|102:146,1,80,2|0,0:0|0:0,0:0:0:0:
112,309,167416,1,0,1:0:0:0:
189,253,167563,54,0,L|320:236,1,120,2|0,0:0|0:0,0:0:0:0:
338,234,167855,2,0,B|367:233|392:250|404:274,1,80,2|0,0:0|1:0,0:0:0:0:
444,365,168148,1,0,0:0:0:0:
334,313,168294,1,2,3:0:0:0:
495,288,168441,1,8,3:0:0:0:
334,313,168587,1,8,1:3:0:0:
477,202,168734,1,8,3:0:0:0:
334,313,168880,5,8,3:0:0:0:
245,150,169026,1,8,3:0:0:0:
245,150,169099,1,8,3:0:0:0:
245,150,169173,1,8,1:3:0:0:
420,88,169319,54,0,B|450:90|469:45|425:16|394:40|397:66,1,119.999996337891,2|0,3:0|0:0,0:0:0:0:
420,88,169758,53,8,3:0:0:0:
188,38,169904,1,8,3:0:0:0:
188,38,169977,1,8,3:0:0:0:
188,38,170051,1,8,1:3:0:0:
63,240,170197,1,2,3:2:0:0:
63,240,170490,37,2,0:0:0:0:
142,293,170636,2,0,L|198:289,1,47.9999985351563,2|0,0:0|0:0,0:0:0:0:
328,346,170929,70,0,B|295:318|287:271|305:232|337:212,1,143.999995605469,4|0,1:2|0:0,0:0:0:0:
361,197,171221,2,0,B|312:199|266:186,1,95.9999970703126,0|0,1:0|0:0,0:0:0:0:
49,78,171514,2,0,L|198:67,1,143.999995605469,2|0,0:0|0:0,0:0:0:0:
229,64,171807,1,0,1:0:0:0:
446,107,171953,54,0,L|351:114,1,95.9999970703126,2|0,0:0|0:0,0:0:0:0:
196,267,172246,1,2,0:0:0:0:
265,185,172392,1,0,1:0:0:0:
299,329,172538,1,2,0:0:0:0:
172,188,172685,1,0,0:0:0:0:
334,247,172831,1,2,0:0:0:0:
149,337,172977,2,0,B|99:326|49:339,1,95.9999970703126,0|2,1:0|0:0,0:0:0:0:
73,174,173270,6,0,B|79:138|75:103|62:72,1,95.9999970703126,0|2,1:0|0:0,0:0:0:0:
47,45,173489,1,0,0:0:0:0:
47,45,173563,2,0,B|99:56|145:40|145:40|189:44,1,143.999995605469,2|0,1:2|0:0,0:0:0:0:
228,38,173855,2,0,B|212:87|212:87|229:179,1,143.999995605469,,,0:0:0:0:
238,216,174148,1,0,1:0:0:0:
350,332,174294,6,0,B|382:345|417:339|443:320,1,95.9999970703126,2|0,0:0|0:0,0:0:0:0:
347,227,174587,1,2,0:0:0:0:
207,363,174733,1,0,1:0:0:0:
37,283,174880,2,0,L|134:298,1,95.9999970703126,2|0,0:0|0:0,0:0:0:0:
256,249,175172,1,2,0:0:0:0:
122,170,175319,1,0,1:0:0:0:
328,295,175465,6,0,B|359:252|347:191|301:159|254:162,1,191.999994140625,4|0,0:0|0:0,0:0:0:0:
251,362,175904,1,0,1:0:0:0:
428,332,176050,1,2,0:0:0:0:
365,104,176197,1,0,1:0:0:0:
256,249,176343,1,0,1:0:0:0:
256,249,176416,1,0,3:0:0:0:
256,249,176489,1,0,1:0:0:0:
496,231,176636,54,0,L|351:206,1,143.999995605469,4|0,0:0|0:0,0:0:0:0:
316,200,176929,1,2,0:0:0:0:
171,321,177075,1,0,1:0:0:0:
345,298,177221,1,2,0:0:0:0:
211,172,177368,1,0,1:0:0:0:
256,345,177514,2,0,L|256:249,1,95.9999970703126,2|0,0:0|1:0,0:0:0:0:
127,208,177807,6,0,B|83:170|32:155|32:155|52:122|109:112,1,191.999994140625,4|0,0:0|0:0,0:0:0:0:
256,64,178246,1,0,1:0:0:0:
410,113,178392,2,0,B|458:122|478:154|478:154|427:169|384:207,1,191.999994140625,2|0,0:0|0:0,0:0:0:0:
256,249,178831,1,0,1:0:0:0:
410,113,178977,6,0,B|447:108|478:88|478:88|466:150|486:209,1,191.999994140625,2|0,0:0|0:0,0:0:0:0:
347,348,179416,1,0,1:0:0:0:
466,312,179563,1,2,0:0:0:0:
255,163,179709,5,8,1:3:0:0:
255,163,179782,1,0,3:0:0:0:
255,163,179855,1,0,3:0:0:0:
380,246,180002,1,8,1:3:0:0:
161,353,180148,1,0,1:0:0:0:
161,353,180221,1,0,3:0:0:0:
161,353,180294,53,4,1:2:0:0:
483,235,180587,1,0,1:0:0:0:
219,17,180880,1,2,0:0:0:0:
303,245,181172,1,0,1:0:0:0:
379,196,181319,6,0,B|401:167|404:131|392:100,1,95.9999970703126,2|0,0:0|0:0,0:0:0:0:
216,256,181611,2,0,B|222:289|245:315|274:327,1,95.9999970703126,2|0,0:0|1:0,0:0:0:0:
372,347,181904,1,2,0:0:0:0:
482,259,182050,1,0,0:0:0:0:
367,317,182197,1,2,0:0:0:0:
297,211,182343,1,0,1:0:0:0:
452,142,182489,1,0,1:0:0:0:
293,93,182636,6,0,B|222:89|222:89|184:87|153:67,1,143.999995605469,0|0,1:0|0:0,0:0:0:0:
125,40,182929,2,0,B|131:80|123:110|123:110|115:139|121:182,1,143.999995605469,0|0,1:0|0:0,0:0:0:0:
114,221,183221,2,0,L|259:214,1,143.999995605469,2|0,0:0|0:0,0:0:0:0:
297,211,183514,1,0,1:0:0:0:
128,319,183660,6,0,B|75:327|26:296|8:246|18:201,1,191.999994140625,2|0,0:0|0:0,0:0:0:0:
202,106,184099,1,0,1:0:0:0:
297,211,184246,2,0,B|351:230|409:205|435:152|428:103,1,191.999994140625,2|0,0:0|0:0,0:0:0:0:
202,106,184685,1,0,1:0:0:0:
276,322,184831,53,4,0:0:0:0:
276,322,185124,1,2,0:0:0:0:
111,265,185270,1,0,1:0:0:0:
239,219,185416,1,2,0:0:0:0:
140,360,185563,1,0,1:0:0:0:
52,182,185709,1,0,1:0:0:0:
52,182,185782,1,0,3:0:0:0:
52,182,185855,1,0,1:0:0:0:
192,296,186002,5,4,0:0:0:0:
192,296,186294,1,2,0:0:0:0:
321,295,186441,1,0,1:0:0:0:
140,360,186587,1,2,0:0:0:0:
372,232,186733,1,0,1:0:0:0:
140,232,186880,1,2,0:0:0:0:
372,360,187026,1,0,1:0:0:0:
140,360,187172,6,0,B|88:373|35:336|28:278|56:238,1,191.999994140625,4|0,0:0|0:0,0:0:0:0:
256,296,187611,1,0,1:0:0:0:
372,360,187758,2,0,B|424:373|477:336|484:278|456:238,1,191.999994140625,4|0,0:0|0:0,0:0:0:0:
256,296,188197,1,0,1:0:0:0:
256,104,188343,6,0,B|256:295,1,191.999994140625,4|0,0:0|0:0,0:0:0:0:
144,128,188782,1,0,1:0:0:0:
368,128,188928,1,8,3:0:0:0:
264,64,189075,1,8,1:3:0:0:
256,68,189148,1,0,3:0:0:0:
247,64,189221,1,2,3:2:0:0:
243,56,189294,1,0,3:0:0:0:
247,47,189368,1,8,1:3:0:0:
256,43,189441,1,0,3:0:0:0:
264,47,189514,1,2,1:2:0:0:
268,56,189587,1,0,3:0:0:0:
256,56,189660,53,4,1:2:0:0:
469,171,189953,1,0,1:0:0:0:
469,171,190099,2,0,B|428:196|428:196|400:288,1,143.999995605469,2|0,0:0|0:0,0:0:0:0:
388,324,190392,1,2,0:0:0:0:
508,259,190538,1,0,1:0:0:0:
422,70,190685,1,2,0:0:0:0:
256,184,190977,5,2,0:0:0:0:
256,316,191124,1,0,1:0:0:0:
256,184,191270,2,0,L|256:232,2,47.9999985351563,2|0|2,0:0|0:0|0:0,0:0:0:0:
168,200,191563,1,2,0:0:0:0:
320,72,191709,1,0,1:0:0:0:
344,200,191855,1,2,0:0:0:0:
192,72,192002,5,0,1:0:0:0:
43,171,192294,1,0,1:0:0:0:
43,171,192440,2,0,B|84:196|84:196|112:288,1,143.999995605469,2|0,0:0|0:0,0:0:0:0:
124,324,192733,1,2,0:0:0:0:
4,259,192879,1,0,1:0:0:0:
90,70,193026,1,2,0:0:0:0:
90,70,193319,5,0,1:0:0:0:
190,189,193465,1,2,1:3:0:0:
214,186,193538,1,0,3:0:0:0:
238,182,193611,1,2,3:2:0:0:
262,178,193684,1,0,3:0:0:0:
286,174,193758,53,2,1:3:0:0:
310,170,193830,1,0,3:0:0:0:
334,166,193903,1,2,1:2:0:0:
358,162,193976,1,0,3:0:0:0:
382,158,194050,2,0,L|358:254,1,95.9999970703126,8|0,1:3|0:0,0:0:0:0:
229,90,194343,5,0,1:0:0:0:
460,222,194489,1,8,3:0:0:0:
460,222,194563,1,0,3:0:0:0:
460,222,194636,1,2,3:2:0:0:
258,271,194782,5,0,1:0:0:0:
382,158,194928,1,8,3:0:0:0:
382,158,195002,1,0,3:0:0:0:
382,158,195075,1,2,3:2:0:0:
393,374,195221,21,8,1:3:0:0:
119,155,195368,1,4,1:2:0:0:
96,190,195953,5,8,3:0:0:0:
96,190,196026,1,0,0:0:0:0:
96,190,196099,1,2,3:2:0:0:
189,319,196246,1,2,0:0:0:0:
282,247,196392,2,0,B|334:247|334:247|378:267|422:247|422:247|474:247,1,191.999994140625,8|4,0:3|1:2,0:0:0:0:
97,112,206050,6,0,B|128:120|157:111|157:111|188:101|223:110,1,128,4|0,0:0|0:0,0:0:0:0:
302,137,206489,1,0,0:0:0:0:
416,196,206636,2,0,B|442:159|441:111|417:77,1,128,2|0,0:0|0:0,0:0:0:0:
272,246,207075,86,0,B|249:283|249:283|263:368,1,128,2|0,0:0|0:0,0:0:0:0:
373,307,207514,1,0,0:0:0:0:
449,273,207660,2,0,L|524:281,1,64,2|0,0:0|0:0,0:0:0:0:
259,228,207953,1,2,0:0:0:0:
173,252,208099,1,0,0:0:0:0:
195,165,208246,1,2,0:0:0:0:
272,246,208392,6,0,B|317:261|363:244|388:208,1,128,2|0,0:0|0:0,0:0:0:0:
421,130,208831,1,0,0:0:0:0:
274,76,208977,2,0,B|241:81|241:81|180:72|180:72|148:77,1,128,2|0,0:0|0:0,0:0:0:0:
54,230,209416,86,0,B|103:220|103:220|138:237|181:231,1,128,2|0,0:0|0:0,0:0:0:0:
260,211,209855,1,0,0:0:0:0:
331,294,210002,2,0,L|327:365,1,64,2|0,0:0|0:0,0:0:0:0:
391,195,210294,1,2,0:0:0:0:
391,195,210368,1,0,0:0:0:0:
391,195,210441,1,2,0:0:0:0:
456,293,210587,1,2,0:0:0:0:
311,376,210733,6,0,B|277:380|245:371,1,64,2|0,0:0|0:0,0:0:0:0:
99,314,211026,2,0,B|133:318|165:309,1,64,,,0:0:0:0:
282,227,211319,2,0,B|248:231|216:222,1,64,2|0,0:0|0:0,0:0:0:0:
140,194,211611,1,0,0:0:0:0:
32,82,211758,86,0,L|167:73,1,128,2|0,0:0|0:0,0:0:0:0:
345,172,212197,1,0,0:0:0:0:
267,202,212343,2,0,L|132:193,1,128,2|0,0:0|0:0,0:0:0:0:
345,172,212782,1,2,0:0:0:0:
416,262,212928,1,2,0:0:0:0:
416,262,213002,1,0,0:0:0:0:
416,262,213075,6,0,B|436:274|459:278|480:275,1,64,2|0,0:0|0:0,0:0:0:0:
463,197,213368,2,0,B|483:185|498:167|506:147,1,64,2|0,0:0|0:0,0:0:0:0:
430,123,213660,2,0,B|429:99|421:78|409:60,2,64,2|0|2,0:0|0:0|0:0,0:0:0:0:
416,262,214099,1,2,0:0:0:0:
311,354,214246,85,0,3:0:0:0:
287,351,214319,1,0,3:0:0:0:
263,349,214392,1,2,3:2:0:0:
239,347,214465,1,0,3:0:0:0:
215,345,214538,1,0,3:0:0:0:
191,343,214611,1,0,3:0:0:0:
167,341,214685,1,2,3:2:0:0:
143,339,214758,1,0,3:0:0:0:
90,331,214831,21,0,1:0:0:0:
129,327,214904,1,0,1:0:0:0:
169,324,214977,1,2,1:2:0:0:
209,320,215050,1,0,1:0:0:0:
249,317,215123,1,0,1:0:0:0:
289,314,215196,1,0,1:0:0:0:
328,310,215270,1,2,1:2:0:0:
368,307,215343,1,0,1:0:0:0:
408,304,215416,6,0,B|405:275|412:247|425:224,1,80,4|0,1:2|0:0,0:0:0:0:
259,41,215709,2,0,B|272:66|277:93|275:119,1,80,0|0,1:0|0:0,0:0:0:0:
69,194,216002,2,0,L|198:184,1,120,2|0,0:0|0:0,0:0:0:0:
220,181,216294,1,0,1:0:0:0:
276,244,216441,6,0,B|254:263|226:269|200:264,1,80,2|0,0:0|0:0,0:0:0:0:
201,99,216733,2,0,B|229:93|256:102|275:119,1,80,2|0,0:0|1:0,0:0:0:0:
376,347,217026,2,0,B|358:292|381:235|426:206,1,160,2|0,0:0|0:0,0:0:0:0:
387,123,217465,1,0,1:0:0:0:
499,261,217611,1,2,0:0:0:0:
316,208,217758,6,0,L|190:215,1,120,2|0,0:0|0:0,0:0:0:0:
162,206,218050,2,0,B|175:247|175:288|166:327,1,120,0|0,1:0|0:0,0:0:0:0:
147,354,218343,2,0,B|176:347|206:352|206:352|233:358|266:353,1,120,2|0,0:0|0:0,0:0:0:0:
300,342,218636,1,0,1:0:0:0:
481,266,218782,1,0,0:0:0:0:
328,249,218928,53,2,0:0:0:0:
416,366,219075,1,0,0:0:0:0:
460,181,219221,1,0,1:0:0:0:
298,265,219368,2,0,B|257:287|206:274|179:234|179:194,1,160,2|0,0:0|0:0,0:0:0:0:
324,79,219807,1,0,1:0:0:0:
263,194,219953,1,2,0:0:0:0:
47,112,220099,6,0,L|173:106,1,120,2|0,0:0|0:0,0:0:0:0:
198,111,220392,1,0,1:0:0:0:
263,194,220538,1,2,0:0:0:0:
118,202,220685,1,0,0:0:0:0:
243,224,220831,1,2,0:0:0:0:
152,314,220977,1,0,1:0:0:0:
246,260,221124,6,0,B|301:243|358:262|392:303,1,160,2|0,0:0|0:0,0:0:0:0:
429,381,221563,1,0,1:0:0:0:
477,250,221709,2,0,B|497:146|497:146|471:99,1,160,2|0,0:0|0:0,0:0:0:0:
425,21,222148,1,0,1:0:0:0:
373,180,222294,1,2,0:0:0:0:
281,105,222441,6,0,L|197:95,1,80,2|0,0:0|0:0,0:0:0:0:
357,191,222733,1,0,1:0:0:0:
207,78,222880,2,0,L|127:87,1,80,2|0,0:0|0:0,0:0:0:0:
341,202,223172,1,0,0:0:0:0:
132,69,223319,2,0,L|53:60,1,80,0|0,1:0|0:0,0:0:0:0:
77,265,223611,53,0,1:0:0:0:
187,173,223758,1,0,3:0:0:0:
233,363,223904,1,0,1:0:0:0:
169,263,224050,1,0,3:0:0:0:
341,202,224197,5,0,1:0:0:0:
347,322,224343,1,2,3:2:0:0:
379,316,224416,1,0,3:0:0:0:
409,302,224489,1,2,1:3:0:0:
433,279,224562,1,0,3:0:0:0:
449,250,224635,1,2,3:2:0:0:
456,217,224708,1,0,3:0:0:0:
453,184,224782,6,0,B|442:154|441:124|447:96,1,80,4|0,1:2|0:0,0:0:0:0:
239,31,225075,2,0,B|262:48|278:69|289:93,1,80,0|0,1:0|0:0,0:0:0:0:
174,265,225368,2,0,B|142:236|137:190|159:156,1,120,2|0,0:0|0:0,0:0:0:0:
179,131,225660,1,0,1:0:0:0:
269,287,225807,6,0,L|257:368,1,80,2|0,0:0|0:0,0:0:0:0:
453,282,226099,2,0,L|373:270,1,80,2|0,0:0|1:0,0:0:0:0:
72,212,226392,2,0,L|231:200,1,160,2|0,0:0|0:0,0:0:0:0:
373,270,226831,1,0,1:0:0:0:
309,163,226977,1,0,0:0:0:0:
444,235,227124,54,0,B|457:262|454:292|440:315,1,80,2|0,0:0|0:0,0:0:0:0:
257,360,227416,2,0,B|232:343|219:316|220:288,1,80,0|0,1:0|0:0,0:0:0:0:
309,163,227709,2,0,L|396:168,1,80,2|0,0:0|0:0,0:0:0:0:
144,310,228002,1,0,1:0:0:0:
281,241,228148,1,2,0:0:0:0:
83,223,228294,5,2,0:0:0:0:
220,292,228440,1,0,0:0:0:0:
155,152,228587,1,0,1:0:0:0:
281,241,228733,2,0,L|373:248,1,80,2|0,0:0|0:0,0:0:0:0:
512,107,229026,2,0,L|349:116,1,160,0|2,1:0|0:0,0:0:0:0:
238,93,229465,5,0,1:0:0:0:
226,10,229611,1,0,3:0:0:0:
55,167,229758,5,0,1:0:0:0:
150,219,229904,1,0,3:0:0:0:
210,352,230050,53,0,1:0:0:0:
242,215,230197,1,0,3:0:0:0:
400,279,230343,5,0,1:0:0:0:
282,295,230489,1,0,3:0:0:0:
353,167,230636,5,0,1:0:0:0:
509,226,230782,1,0,3:0:0:0:
284,207,230928,5,0,1:0:0:0:
255,27,231075,1,0,3:0:0:0:
85,149,231221,53,0,1:0:0:0:
248,119,231368,1,0,3:0:0:0:
133,365,231514,5,0,1:0:0:0:
170,149,231660,1,0,3:0:0:0:
462,290,231807,6,0,L|414:285,1,47.9999985351563,8|0,1:3|0:0,0:0:0:0:
131,253,231953,1,4,1:3:0:0:
131,253,232246,38,0,B|94:256|61:240|61:240|76:220,1,96,4|0,1:2|0:0,0:0:0:0:
131,253,232538,6,0,B|94:256|61:240|61:240|63:192,1,120,4|0,1:2|0:0,0:0:0:0:
131,253,232831,70,2,B|94:256|61:240|61:240|39:186|61:129|61:129|87:113|124:112,1,251.999992309571,4|0,1:2|0:0,0:1:0:0:
190,170,233563,5,8,3:0:0:0:
211,136,233636,1,0,3:0:0:0:
214,97,233709,1,8,3:0:0:0:
198,60,233782,1,0,3:0:0:0:
168,35,233855,1,4,3:0:0:0:
251,244,234002,1,0,1:0:0:0:
505,109,234148,70,0,B|461:137|408:139|364:121,1,143.999995605469,4|0,1:2|0:0,0:0:0:0:
333,102,234441,2,0,B|347:135|349:170|341:202,1,95.9999970703126,0|0,1:0|0:0,0:0:0:0:
188,308,234733,2,0,B|140:288|88:298|52:329,1,143.999995605469,2|0,0:0|0:0,0:0:0:0:
26,356,235026,1,0,1:0:0:0:
260,357,235172,54,0,B|276:324|274:289|259:259,1,95.9999970703126,2|0,0:0|0:0,0:0:0:0:
176,194,235465,1,2,0:0:0:0:
354,207,235611,1,0,1:0:0:0:
201,183,235758,1,2,0:0:0:0:
325,96,235904,1,0,0:0:0:0:
261,264,236050,1,2,0:0:0:0:
178,98,236197,1,0,1:0:0:0:
403,150,236343,1,0,1:0:0:0:
207,340,236489,6,0,B|238:358|274:358|304:344,1,95.9999970703126,0|2,1:0|0:0,0:0:0:0:
332,325,236709,1,0,0:0:0:0:
332,325,236782,2,0,B|348:279|348:279|335:182,1,143.999995605469,2|0,1:2|0:0,0:0:0:0:
328,146,237075,2,0,B|287:157|255:150|255:150|221:142|184:151,1,143.999995605469,,,0:0:0:0:
148,162,237368,1,0,1:0:0:0:
296,46,237514,6,0,B|329:34|363:41|388:61,1,95.9999970703126,2|0,0:0|0:0,0:0:0:0:
441,141,237807,1,2,0:0:0:0:
263,231,237953,1,0,1:0:0:0:
148,162,238099,2,0,L|45:173,1,95.9999970703126,2|0,0:0|0:0,0:0:0:0:
170,64,238392,1,2,0:0:0:0:
263,231,238538,1,0,1:0:0:0:
52,172,238685,6,0,B|13:210|13:273|54:314|102:320,1,191.999994140625,4|0,0:0|0:0,0:0:0:0:
263,231,239124,1,0,1:0:0:0:
115,234,239270,1,2,0:0:0:0:
225,137,239416,1,0,1:0:0:0:
341,266,239563,1,2,0:0:0:0:
213,164,239709,1,0,1:0:0:0:
280,326,239855,54,0,B|326:362|382:340|382:340|422:325|464:339,1,191.999994140625,4|0,0:0|0:0,0:0:0:0:
472,162,240294,1,0,1:0:0:0:
341,266,240441,1,2,0:0:0:0:
416,104,240587,1,0,1:0:0:0:
341,266,240733,2,0,L|444:252,1,95.9999970703126,2|0,0:0|1:0,0:0:0:0:
318,101,241026,6,0,B|284:96|253:110|233:134,1,95.9999970703126,4|0,0:0|0:0,0:0:0:0:
186,218,241319,1,0,0:0:0:0:
339,357,241465,1,0,1:0:0:0:
200,310,241611,2,0,B|166:315|135:301|115:277,1,95.9999970703126,2|0,0:0|0:0,0:0:0:0:
186,218,241904,1,2,0:0:0:0:
316,256,242050,1,0,1:0:0:0:
446,294,242197,6,0,B|473:239|473:239|449:111,1,191.999994140625,4|0,0:0|0:0,0:0:0:0:
316,256,242636,1,0,1:0:0:0:
446,294,242782,1,2,0:0:0:0:
239,318,242928,5,8,1:3:0:0:
239,318,243002,1,0,3:0:0:0:
239,318,243075,1,0,3:0:0:0:
341,162,243221,1,8,1:3:0:0:
485,364,243368,1,0,1:0:0:0:
485,364,243441,1,0,3:0:0:0:
485,364,243514,53,4,1:2:0:0:
89,276,243807,1,0,1:0:0:0:
437,136,244099,1,2,0:0:0:0:
211,352,244392,1,0,1:0:0:0:
278,286,244538,6,0,B|314:274|314:274|340:280|373:282,1,95.9999970703126,2|0,0:0|0:0,0:0:0:0:
138,208,244831,2,0,B|102:196|102:196|75:202|43:204,1,95.9999970703126,2|0,0:0|1:0,0:0:0:0:
244,185,245124,1,2,0:0:0:0:
280,44,245270,1,0,0:0:0:0:
253,212,245416,1,2,0:0:0:0:
378,174,245563,1,0,1:0:0:0:
207,103,245709,1,0,1:0:0:0:
347,254,245855,6,0,B|398:270|452:237|460:184,1,143.999995605469,0|0,1:0|0:0,0:0:0:0:
460,152,246148,2,0,B|439:110|449:64|449:64|426:70|391:66,1,143.999995605469,0|0,1:0|0:0,0:0:0:0:
357,62,246441,1,2,0:0:0:0:
189,149,246587,1,0,0:0:0:0:
378,174,246733,1,0,1:0:0:0:
154,242,246880,6,0,B|102:226|71:174|79:119|112:84,1,191.999994140625,2|0,0:0|0:0,0:0:0:0:
265,343,247319,1,0,1:0:0:0:
339,251,247465,2,0,B|379:215|438:215|480:249|493:293,1,191.999994140625,2|0,0:0|0:0,0:0:0:0:
265,343,247904,1,0,1:0:0:0:
311,121,248050,53,4,0:0:0:0:
311,121,248343,1,2,0:0:0:0:
480,60,248489,1,0,1:0:0:0:
286,10,248636,1,2,0:0:0:0:
404,164,248782,1,0,1:0:0:0:
256,240,248928,1,0,1:0:0:0:
256,240,249002,1,0,3:0:0:0:
256,240,249075,1,0,1:0:0:0:
184,55,249221,5,4,0:0:0:0:
184,55,249514,1,2,0:0:0:0:
22,166,249660,1,0,1:0:0:0:
177,137,249807,1,2,0:0:0:0:
31,254,249953,1,0,1:0:0:0:
170,219,250099,1,2,0:0:0:0:
40,342,250246,1,0,1:0:0:0:
319,343,250392,6,0,B|406:343|406:343|464:337|490:288,1,191.999994140625,4|0,0:0|0:0,0:0:0:0:
256,232,250831,1,0,1:0:0:0:
193,343,250977,2,0,B|106:343|106:343|48:337|22:288,1,191.999994140625,4|0,0:0|0:0,0:0:0:0:
256,232,251416,1,0,1:0:0:0:
256,40,251563,6,0,L|256:232,1,191.999994140625,4|0,0:0|0:0,0:0:0:0:
144,200,252002,1,0,1:0:0:0:
368,200,252148,1,8,3:0:0:0:
256,232,252294,1,8,1:3:0:0:
256,208,252367,1,0,3:0:0:0:
256,184,252440,1,2,3:2:0:0:
256,160,252513,1,0,3:0:0:0:
256,136,252586,1,8,1:3:0:0:
256,112,252659,1,0,3:0:0:0:
256,88,252733,1,2,1:2:0:0:
256,64,252806,1,0,3:0:0:0:
256,40,252879,53,4,1:2:0:0:
363,307,253172,1,0,1:0:0:0:
153,331,253319,2,0,B|112:330|79:302|68:263|77:229,1,143.999995605469,2|0,0:0|0:0,0:0:0:0:
151,171,253612,2,0,L|75:230,1,95.9999970703126,2|0,0:0|1:0,0:0:0:0:
256,88,253904,1,2,0:0:0:0:
416,192,254197,5,2,0:0:0:0:
416,192,254343,1,0,1:0:0:0:
256,88,254489,2,0,L|256:40,2,47.9999985351563,2|0|2,0:0|0:0|0:0,0:0:0:0:
96,192,254782,1,2,0:0:0:0:
96,192,254928,1,0,1:0:0:0:
256,296,255075,1,2,0:0:0:0:
256,88,255221,6,0,L|256:184,1,95.9999970703126,0|0,1:0|0:0,0:0:0:0:
149,307,255513,1,0,1:0:0:0:
359,331,255660,2,0,B|400:330|433:302|444:263|435:229,1,143.999995605469,2|0,0:0|0:0,0:0:0:0:
361,171,255953,2,0,L|436:230,1,95.9999970703126,2|0,0:0|1:0,0:0:0:0:
256,88,256245,1,2,0:0:0:0:
256,88,256538,5,0,1:0:0:0:
293,343,256685,1,2,1:3:0:0:
263,359,256758,1,0,3:0:0:0:
230,353,256831,1,2,3:2:0:0:
209,328,256904,1,0,3:0:0:0:
209,294,256977,53,2,1:3:0:0:
230,268,257050,1,0,3:0:0:0:
263,263,257124,1,2,1:2:0:0:
293,279,257197,1,0,3:0:0:0:
304,311,257270,1,8,1:3:0:0:
256,164,257416,1,0,0:0:0:0:
144,240,257563,5,0,1:0:0:0:
368,240,257709,2,0,L|342:198,1,47.9999985351563,8|0,3:0|3:0,0:0:0:0:
256,46,257855,1,2,3:2:0:0:
256,352,258002,5,0,1:0:0:0:
122,120,258148,2,0,L|169:120,1,47.9999985351563,8|0,3:0|3:0,0:0:0:0:
389,120,258294,1,2,3:2:0:0:
256,352,258441,21,8,1:3:0:0:
256,46,258587,1,4,1:2:0:0:
440,208,259904,86,0,L|431:288,1,80,4|0,1:2|0:0,0:0:0:0:
320,341,260197,1,0,1:0:0:0:
431,287,260343,1,0,0:0:0:0:
288,227,260489,1,8,3:0:0:0:
197,364,260636,1,0,1:0:0:0:
288,227,260928,1,2,0:0:0:0:
197,364,261221,1,8,3:0:0:0:
64,316,261368,1,0,1:0:0:0:
146,251,261514,1,2,0:0:0:0:
72,176,261660,54,0,L|81:96,1,80,8|0,3:0|0:0,0:0:0:0:
192,43,261953,1,0,1:0:0:0:
81,97,262099,1,0,0:0:0:0:
224,157,262245,1,8,3:0:0:0:
315,20,262392,1,0,1:0:0:0:
224,157,262685,1,2,0:0:0:0:
315,20,262978,1,8,3:0:0:0:
448,68,263125,1,0,1:0:0:0:
366,133,263271,1,2,0:0:0:0:
464,201,263416,6,0,B|478:239|478:239|470:280,1,80,8|0,3:0|0:0,0:0:0:0:
451,366,263709,1,0,1:0:0:0:
276,302,263855,2,0,B|262:264|262:264|270:223,1,80,8|2,3:0|0:0,0:0:0:0:
289,137,264148,1,0,1:0:0:0:
372,255,264294,1,8,3:0:0:0:
172,189,264441,2,0,B|155:268|155:268|182:342,1,160,0|2,1:0|0:0,0:0:0:0:
289,137,264880,1,0,1:0:0:0:
142,85,265026,1,8,3:0:0:0:
256,236,265172,5,0,1:0:0:0:
381,181,265319,1,8,3:0:0:0:
381,181,265392,1,0,3:0:0:0:
381,181,265465,1,2,3:2:0:0:
280,345,265611,5,0,1:0:0:0:
155,290,265758,1,8,3:0:0:0:
155,290,265831,1,0,3:0:0:0:
155,290,265904,1,2,3:2:0:0:
256,104,266050,53,8,1:3:0:0:
256,236,266197,1,2,1:2:0:0:
256,236,266489,53,8,1:3:0:0:
256,170,266562,1,0,1:0:0:0:
256,104,266635,1,4,1:2:0:0:
